小车吧

查看: 1243|回复: 12

[APE] 群星 - 汽车音响测试专用碟

[复制链接]

用户组: 管理员

Rank: 9Rank: 9Rank: 9

UID
3
威望
0
贡献
0
在线时间
834 小时
注册时间
2016-8-7
发表于 2016-8-22 15:48:41 | 显示全部楼层 |阅读模式
专辑名:  汽车音响测试专用碟
出版:中国科学文化音像出版社
唱片公司:  柏菲音乐
演绎  群星
发行地区: 中国大陆
发行时间:  2014-08-13
ISBN:978-7-7986-3409-9
产品编号:  HZH-CD104

专辑介绍:

汽车音响测试专用碟是一张不可多得的很多汽车发烧友指定试音碟。



专辑曲目:
01.怀念战友   伽菲珈而
02.殇       赵鹏
03.再回首    蓝岚
04.弹起我心爱的土琵琶      男生大合唱
05.梅花三弄     古璇
06.两忘烟水里     陈妃平/刘锡明
07.初次尝到寂寞       李烁
08.斯卡布罗市集       民乐与乐队
09.天空      窦鹏
10.又见吹烟      李一凤
11.曲蔓地    古璇
12.娄兰古道       陈悦 笛子与乐队
13.军队进行曲      管弦乐与音效


REM DISCID AE0EB40D
REM COMMENT "ExactAudioCopy v1.0b3"
PERFORMER "群星"
TITLE "汽车音响测试专用碟"
FILE "群星 - 汽车音响测试专用碟.wav" WAVE
  TRACK 01 AUDIO
    TITLE "怀念战友"
    PERFORMER "伽菲珈而"
    INDEX 01 00:00:00
  TRACK 02 AUDIO
    TITLE "殇"
    PERFORMER "赵鹏"
    INDEX 01 05:37:65
  TRACK 03 AUDIO
    TITLE "再回首"
    PERFORMER "蓝岚"
    INDEX 00 05:37:65
    INDEX 01 10:19:06
  TRACK 04 AUDIO
    TITLE "弹起我心爱的土琵琶"
    PERFORMER "男生大合唱"
    INDEX 00 05:37:65
    INDEX 01 14:46:13
  TRACK 05 AUDIO
    TITLE "梅花三弄"
    PERFORMER "古璇"
    INDEX 00 05:37:65
    INDEX 01 21:10:72
  TRACK 06 AUDIO
    TITLE "两忘烟水里"
    PERFORMER "陈妃平/刘锡明"
    INDEX 00 05:37:65
    INDEX 01 26:08:10
  TRACK 07 AUDIO
    TITLE "初次尝到寂寞"
    PERFORMER "李烁"
    INDEX 00 05:37:65
    INDEX 01 29:59:13
  TRACK 08 AUDIO
    TITLE "斯卡布罗市集"
    PERFORMER "民乐与乐队"
    INDEX 00 05:37:65
    INDEX 01 34:05:69
  TRACK 09 AUDIO
    TITLE "天空"
    PERFORMER "窦鹏"
    INDEX 00 05:37:65
    INDEX 01 37:22:17
  TRACK 10 AUDIO
    TITLE "又见吹烟"
    PERFORMER "李一凤"
    INDEX 00 05:37:65
    INDEX 01 42:12:71
  TRACK 11 AUDIO
    TITLE "曲蔓地"
    PERFORMER "古璇"
    INDEX 00 05:37:65
    INDEX 01 45:29:04
  TRACK 12 AUDIO
    TITLE "娄兰古道"
    PERFORMER "陈悦 笛子与乐队"
    INDEX 00 05:37:65
    INDEX 01 49:07:07
  TRACK 13 AUDIO
    TITLE "军队进行曲"
    PERFORMER "管弦乐与音效"
    INDEX 00 05:37:65
    INDEX 01 55:32:64


下载地址:
链接:http://pan.baidu.com/s/1skRb9hV 密码:回复可见
游客,如果您要查看本帖隐藏内容请回复





本帖子中包含更多资源

您需要 登录 才可以下载或查看,没有帐号?立即注册

x
回复

使用道具 举报

用户组: 新手上路

Rank: 1

UID
81
威望
0
贡献
0
在线时间
0 小时
注册时间
2016-9-8
发表于 2016-9-8 08:54:08 | 显示全部楼层
这些歌都是经典
回复 支持 反对

使用道具 举报

用户组: VIP音乐霸王

Rank: 8Rank: 8

UID
6
威望
0
贡献
0
在线时间
7 小时
注册时间
2016-8-8
发表于 2016-9-8 16:54:19 | 显示全部楼层
碟有了,,,没车啊·······
回复 支持 反对

使用道具 举报

用户组: 新手上路

Rank: 1

UID
120
威望
0
贡献
0
在线时间
1 小时
注册时间
2016-10-1
发表于 2016-10-1 15:23:38 | 显示全部楼层
谢谢分享,楼主辛苦。
回复 支持 反对

使用道具 举报

用户组: VIP音乐霸王

Rank: 8Rank: 8

UID
8
威望
0
贡献
0
在线时间
4 小时
注册时间
2016-8-8
QQ
发表于 2016-10-10 14:03:41 | 显示全部楼层
测试碟 也要找个好音响啊
回复 支持 反对

使用道具 举报

用户组: 新手上路

Rank: 1

UID
137
威望
0
贡献
0
在线时间
0 小时
注册时间
2016-10-14
发表于 2016-10-14 11:03:50 | 显示全部楼层
:lol:lol
回复

使用道具 举报

用户组: 注册会员

Rank: 2

UID
138
威望
0
贡献
0
在线时间
1 小时
注册时间
2016-10-14
发表于 2016-10-20 19:01:12 | 显示全部楼层
下载来备用测试
回复 支持 反对

使用道具 举报

用户组: 新手上路

Rank: 1

UID
155
威望
0
贡献
0
在线时间
0 小时
注册时间
2016-10-26
发表于 2016-10-26 14:18:21 | 显示全部楼层
580f只可用于学习交流和试听
回复 支持 反对

使用道具 举报

用户组: 新手上路

Rank: 1

UID
168
威望
0
贡献
0
在线时间
0 小时
注册时间
2016-11-3
发表于 2016-11-3 23:25:04 | 显示全部楼层
02313216526526
回复 支持 反对

使用道具 举报

用户组: 注册会员

Rank: 2

UID
178
威望
0
贡献
0
在线时间
4 小时
注册时间
2016-11-22
发表于 2016-12-15 15:39:51 | 显示全部楼层
8888888888888888888
回复 支持 反对

使用道具 举报

您需要登录后才可以回帖 登录 | 立即注册

本版积分规则

QQ|Archiver|手机版|小黑屋| 小车吧. ( 赣ICP备16000316号-1 )

GMT+8, 2018-11-15 22:47 , Processed in 0.222455 second(s), 21 queries .

Powered by Discuz! X3.3

© 2015-2017 xiaocheba.com

快速回复 返回顶部 返回列表